Nomenglatura

Solo disponible en BuenasTareas
  • Páginas : 17 (4047 palabras )
  • Descarga(s) : 4
  • Publicado : 26 de mayo de 2010
Leer documento completo
Vista previa del texto
WEE
[VC] ====== Start time: 4/29/2010, 16:14:31
[VC] Module VC Log Version = 1,5,6,280
[VC] OS Info 5 1 S 3 0
[VC] In Open(C:\Documents and Settings\Administrador\Mis documentos\Mis Videos\la verdadera muerte de hinata.flv)
[VC] FileFormat: flv, 129.919999
[VC] Video: flv, 250517, 320x232, 1000.000000
[VC] Audio: mp3, 64000, 22050, 1
[VC] Title: Artist: Album: Year: 0 Track: 0
[VC]Out Open = S_OK
[VC] In Open(C:\Documents and Settings\Administrador\Mis documentos\Mis Videos\la verdadera muerte de hinata.flv)
[VC] FileFormat: flv, 129.919999
[VC] Video: flv, 250517, 320x232, 1000.000000
[VC] Audio: mp3, 64000, 22050, 1
[VC] Title: Artist: Album: Year: 0 Track: 0
[VC] Out Open = S_OK
[VC] Save C:\Documents and Settings\Administrador\Misdocumentos\DVDVideoSoft\Free3GPVideoConverter\la verdadera muerte de hinata.3gp

[VC] Extended regime to convert: no

[VC] OutputVideoFormat: 1, 3, 352, 288, 15.000000, 320000
[VC] OutputAudioFormat: 3, 12200, 8000, 1
[VC] OutTimeInterval: 0.000000, -1.000000
"C:\Archivos de programa\Archivos comunes\DVDVideoSoft\Dll\ffmpeg.exe" -y -i "C:\Documents and Settings\Administrador\Mis documentos\Mis Videos\la verdadera muertede hinata.flv" -map 0:0 -map 0:1 -ss 0.00 -vcodec h263 -r 15.000000 -padtop 16 -padbottom 16 -s 352x256 -b 320000 -aspect 11:9 -acodec libopencore_amrnb -ab 12200 -ar 8000 -ac 1 -f 3gp "C:\Documents and Settings\Administrador\Mis documentos\DVDVideoSoft\Free3GPVideoConverter\la verdadera muerte de hinata.3gp"
FFmpeg version r21343-www.DVDVideoSoft.com, Copyright (c) 2000-2010 Fabrice Bellard, etal.
built on Jan 26 2010 12:17:27 with gcc 4.2.4
libavutil 50. 7. 0 / 50. 7. 0
libavcodec 52.48. 0 / 52.48. 0
libavformat 52.47. 0 / 52.47. 0
libavdevice 52. 2. 0 / 52. 2. 0
libavfilter 1.17. 0 / 1.17. 0
libswscale 0. 8. 0 / 0. 8. 0
libpostproc 51. 2. 0 / 51. 2. 0
[flv @ 0x2100050]Estimating duration from bitrate, this may be inaccurate

Seemsstream 0 codec frame rate differs from container frame rate: 1000.00 (1000/1) -> 25.00 (25/1)
Input #0, flv, from 'C:\Documents and Settings\Administrador\Mis documentos\Mis Videos\la verdadera muerte de hinata.flv':
Metadata:
duration : 130
starttime : 0
totalduration : 130
width : 320
height : 232
videodatarate : 245audiodatarate : 64
totaldatarate : 316
framerate : 25
bytelength : 5141533
canseekontime : true
sourcedata : B4A7D6B06
Duration: 00:02:09.91, start: 0.000000, bitrate: 314 kb/s
Stream #0.0: Video: flv, yuv420p, 320x232, 250 kb/s, 25 tbr, 1k tbn, 1k tbc
Stream #0.1: Audio: mp3, 22050 Hz, 1 channels, s16, 64 kb/s
Output #0,3gp, to 'C:\Documents and Settings\Administrador\Mis documentos\DVDVideoSoft\Free3GPVideoConverter\la verdadera muerte de hinata.3gp':
Stream #0.0: Video: h263, yuv420p, 352x288 [PAR 1:1 DAR 11:9], q=2-31, 320 kb/s, 15 tbn, 15 tbc
Stream #0.1: Audio: libopencore_amrnb, 8000 Hz, 1 channels, s16, 12 kb/s
Stream mapping:
Stream #0.0 -> #0.0
Stream #0.1 -> #0.1
Press [q] to stopencoding
[h263 @ 0x2109b30]warning, clipping 1 dct coefficients to -127..127
Last message repeated 24 times
[h263 @ 0x2109b30]warning, clipping 2 dct coefficients to -127..127
[h263 @ 0x2109b30]warning, clipping 1 dct coefficients to -127..127
frame= 13 fps= 0 q=1.6 size= 39kB time=0.78 bitrate= 405.6kbits/s dup=0 drop=4
frame= 38 fps= 36 qframe= 1947 fps= 37 q=4.5 size=5651kB time=129.72 bitrate= 356.9kbits/s dup=0 drop=1291
frame= 1950 fps= 37 q=2.3 Lsize= 5713kB time=130.00 bitrate= 360.0kbits/s dup=0 drop=1294

video:5468kB audio:203kB global headers:0kB muxing overhead 0.746266%
[VC] Convert Success

[VC] ====== Start time: 4/30/2010, 16:46:42
[VC] Module VC Log Version = 1,5,6,280
[VC] OS Info 5 1 S 3 0

[VC] ====== Start time: 4/30/2010,...
tracking img